Ahora peliseries.live es peliculasyserieslatino.me

The Final Countdown (1980) 720p-1080p-BDRemux

Peliculas Español (Latino)   -   marce27pas

2024-06-21 21:10:59
The Final Countdown (1980) 720p-1080p-BDRemux Dual x264

Debido a un fenómeno meteorológico, un portaaviones es transportado desde 1980 a 1941 justo antes del ataque a Pearl Harbor. El capitán deberá decidir si ataca a la flota japonesa y cambiar así el curso de la Segunda Guerra Mundial.








Versión 720p x264

General

Format : Matroska
Format version : Version 4
File size : 4.46 GiB
Duration : 1 h 42 min
Overall bit rate : 6 225 kb/s
Frame rate : 23.976 FPS

Video
ID : 1
Format : AVC
Format/Info : Advanced Video Codec
Bit rate : 4 585 kb/s
Width : 1 280 pixels
Height : 544 pixels
Display aspect ratio : 2.35:1
Frame rate mode : Constant
Bit depth : 8 bits
Writing library : x264 core 65 r1016 dbc5ef0


Audio #1
ID : 2
Format : DTS
Format/Info : Digital Theater Systems
Codec ID : A_DTS
Bit rate mode : Constant
Bit rate : 1 509 kb/s
Channel(s) : 6 channels
Title : Ingles
Language : English


Audio #2
ID : 3
Format : MPEG Audio
Format version : Version 1
Format profile : Layer 3
Format settings : Joint stereo / MS Stereo
Codec ID : A_MPEG/L3
Bit rate mode : Constant
Bit rate : 128 kb/s
Channel(s) : 2 channels
Title : Español Latino
Language : Spanish

Text
ID : 4
Format : UTF-8
Codec ID : S_TEXT/UTF8
Codec ID/Info : UTF-8 Plain Text
Duration : 1 h 38 min
Bit rate : 52 b/s
Frame rate : 0.164 FPS
Count of elements : 975
Stream size : 38.1 KiB (0%)
Title : Español
Language : Spanish
Default : No
Forced : No

Peso: 4.46 GB
Compresión: Si 1 Parte ZIP (WinZip 28)
Contraseña: identi.io






Versión 1080p x264

General

Format : Matroska
Format version : Version 4
File size : 4.59 GiB
Duration : 1 h 42 min
Overall bit rate : 6 407 kb/s
Frame rate : 23.976 FPS

Video
ID : 1
Format : AVC
Format/Info : Advanced Video Codec
Bit rate : 4 767 kb/s
Width : 1 918 pixels
Height : 816 pixels
Display aspect ratio : 2.35:1
Frame rate mode : Constant
Bit depth : 8 bits
Writing library : x264 core 164 r3107 a8b68ebf

Audio #1
ID : 2
Format : DTS
Format/Info : Digital Theater Systems
Codec ID : A_DTS
Bit rate mode : Constant
Bit rate : 1 509 kb/s
Channel(s) : 6 channels
Title : Ingles
Language : English

Audio #2
ID : 3
Format : MPEG Audio
Format version : Version 1
Format profile : Layer 3
Format settings : Joint stereo / MS Stereo
Codec ID : A_MPEG/L3
Bit rate mode : Constant
Bit rate : 128 kb/s
Channel(s) : 2 channels
Title : Español Latino
Language : Spanish

Text
ID : 4
Format : UTF-8
Codec ID : S_TEXT/UTF8
Codec ID/Info : UTF-8 Plain Text
Duration : 1 h 38 min
Bit rate : 52 b/s
Frame rate : 0.164 FPS
Count of elements : 975
Stream size : 38.1 KiB (0%)
Title : Español
Language : Spanish

Peso: 4.59 GB
Compresión: Si 1 Parte ZIP (WinZip 28)
Contraseña: identi.io






Versión BDRremux x264

General

Format : Matroska
Format version : Version 4
File size : 25.9 GiB
Duration : 1 h 42 min
Overall bit rate mode : Variable
Overall bit rate : 36.1 Mb/s
Frame rate : 24.000 FPS

Video
ID : 1
Format : VC-1
Format profile : Advanced@L3
Codec ID : V_MS/VFW/FOURCC / WVC1
Bit rate : 33.0 Mb/s
Width : 1 920 pixels
Height : 1 080 pixels
Display aspect ratio : 16:9
Chroma subsampling : 4:2:0
Bit depth : 8 bits


Audio #1
ID : 2
Format : DTS XLL
Format/Info : Digital Theater Systems
Commercial name : DTS-HD Master Audio
Codec ID : A_DTS
Duration : 1 h 42 min
Bit rate mode : Variable
Bit rate : 2 479 kb/s
Channel(s) : 6 channels
Title : Ingles
Language : English


Audio #2
ID : 3
Format : AC-3
Format/Info : Audio Coding 3
Commercial name : Dolby Digital
Codec ID : A_AC3
Bit rate mode : Constant
Bit rate : 192 kb/s
Channel(s) : 2 channels
Title : Español Latino
Language : Spanish

Audio #3
ID : 4
Format : AC-3
Format/Info : Audio Coding 3
Commercial name : Dolby Digital
Codec ID : A_AC3
Bit rate mode : Constant
Bit rate : 448 kb/s
Channel(s) : 6 channels
Title : Ingles DTS Normalizado
Language : English

Text #1
ID : 5
Format : PGS
Muxing mode : zlib
Codec ID : S_HDMV/PGS
Codec ID/Info : Picture based subtitle format used on BDs/HD-DVDs
Duration : 1 h 38 min
Bit rate : 24.4 kb/s
Frame rate : 0.337 FPS
Count of elements : 1996
Stream size : 17.3 MiB (0%)
Title : Ingles
Language : English

Text #2
ID : 6
Format : PGS
Muxing mode : zlib
Codec ID : S_HDMV/PGS
Codec ID/Info : Picture based subtitle format used on BDs/HD-DVDs
Duration : 1 h 39 min
Bit rate : 21.0 kb/s
Frame rate : 0.189 FPS
Count of elements : 1126
Stream size : 14.9 MiB (0%)
Title : Aleman
Language : German

Text #3
ID : 7
Format : PGS
Muxing mode : zlib
Codec ID : S_HDMV/PGS
Codec ID/Info : Picture based subtitle format used on BDs/HD-DVDs
Duration : 1 h 39 min
Bit rate : 22.0 kb/s
Frame rate : 0.215 FPS
Count of elements : 1281
Stream size : 15.7 MiB (0%)
Title : Aleman
Language : German

Text #4
ID : 8
Format : UTF-8
Codec ID : S_TEXT/UTF8
Codec ID/Info : UTF-8 Plain Text
Duration : 1 h 38 min
Bit rate : 51 b/s
Frame rate : 0.164 FPS
Count of elements : 974
Stream size : 37.5 KiB (0%)
Title : Español
Language : Spanish
Default : Yes
Forced : No

Peso: 25.8 GB
Compresión: Si 7 Part .7z (7zip 24.07)
Contraseña: identi.io






Quiero agradecer al usuario Kanon87 que muy amablemente me ayudo con el sincronismo del audio latino para el BDRemux, los subtítulos español fueron resincronizados por mi y se agrego el audio AC3 5.1 Normalizado (se mantuvo el DTS 5.1 de origen aun con la saturación que trae). Decidí subirla a MF para que la puedan descargar sin problema . saludos.


descargar peliculas - descargar programas
Otras publicaciones