Prey 2022 4k HDR Ligero Dual Latino

Peliculas Español (Latino)   -   sololatino

2022-08-05 17:17:26
Prey 2022 4k HDR Ligero Dual Latino



Ambientada hace 300 años en la Nación Comanche. Naru es una joven guerrera, feroz y altamente hábil, que se crió a la sombra de algunos de los cazadores más legendarios que deambulan por las Grandes Llanuras. Cuando el peligro amenaza su campamento, se dispone a proteger a su gente. La presa a la que acecha y, en última instancia, se enfrenta, resulta ser un depredador alienígena evolucionado con un arsenal técnicamente avanzado, lo que deriva en un enfrentamiento cruel y aterrador entre los dos adversarios. Nueva entrega de la saga Predator.





Format : Matroska
Format version : Version 4
File size : 3.27 GiB
Duration : 1 h 39 min
Overall bit rate : 4 710 kb/s



Video
ID : 1
Format : HEVC
Format/Info : High Efficiency Video Coding
Format profile : Main 10@L5@Main
HDR format : SMPTE ST 2086, HDR10 compatible
Codec ID : V_MPEGH/ISO/HEVC
Duration : 1 h 39 min
Bit rate : 4 236 kb/s
Width : 3 840 pixels
Height : 2 160 pixels
Display aspect ratio : 16:9
Frame rate mode : Constant
Frame rate : 24.000 FPS
Color space : YUV
Chroma subsampling : 4:2:0
Bit depth : 10 bits



Audio #1
ID : 2
Format : AAC LC SBR
Format/Info : Advanced Audio Codec Low Complexity with Spectral Band Replication
Commercial name : HE-AAC
Format settings : Explicit
Codec ID : A_AAC-2
Duration : 1 h 39 min
Bit rate : 216 kb/s
Channel(s) : 6 channels
Channel layout : C L R Ls Rs LFE
Sampling rate : 48.0 kHz
Frame rate : 23.438 FPS (2048 SPF)
Compression mode : Lossy
Delay relative to video : 23 ms
Stream size : 154 MiB (5%)
Language : English
Default : Yes
Forced : No

Audio #2
ID : 5
Format : E-AC-3
Format/Info : Enhanced AC-3
Commercial name : Dolby Digital Plus
Codec ID : A_EAC3
Duration : 1 h 39 min
Bit rate mode : Constant
Bit rate : 256 kb/s
Channel(s) : 6 channels
Channel layout : L R C LFE Ls Rs
Sampling rate : 48.0 kHz
Frame rate : 31.250 FPS (1536 SPF)
Compression mode : Lossy
Stream size : 182 MiB (5%)
Language : Spanish
Service kind : Complete Main
Default : No
Forced : No

Text #1
ID : 3
Format : UTF-8
Codec ID : S_TEXT/UTF8
Codec ID/Info : UTF-8 Plain Text
Duration : 1 h 38 min
Bit rate : 10 b/s
Count of elements : 297
Stream size : 7.83 KiB (0%)
Language : Spanish
Default : No
Forced : No

Text #2
ID : 4
Format : UTF-8
Codec ID : S_TEXT/UTF8
Codec ID/Info : UTF-8 Plain Text
Duration : 1 h 33 min
Bit rate : 0 b/s
Count of elements : 4
Stream size : 124 Bytes (0%)
Language : Spanish
Default : Yes
Forced : Yes



descargar peliculas - descargar programas
Otras publicaciones